<?xml version="1.0" standalone="no"?>
<!DOCTYPE svg PUBLIC "-//W3C//DTD SVG 1.1//EN" "http://www.w3.org/Graphics/SVG/1.1/DTD/svg11.dtd" >
<svg xmlns="http://www.w3.org/2000/svg">
<metadata>Generated by IcoMoon</metadata>
<defs>
<font id="intense" horiz-adv-x="512">
<font-face units-per-em="512" ascent="480" descent="-32" />
<missing-glyph horiz-adv-x="512" />
<glyph unicode="&#x20;" d="" horiz-adv-x="256" />
<glyph unicode="&#xe600;" d="M445.387 125.423c-22.827 22.778-51.864 34.536-78.973 34.536h-14.556l-31.952 32.004 127.81 128.019c31.952 32.005 31.952 96.014 0 128.019l-191.715-192.028-191.716 192.027c-31.952-32.004-31.952-96.014 0-128.019l127.811-128.017-31.953-32.004h-14.557c-27.11 0-56.146-11.759-78.974-34.538-40.811-40.721-46.325-101.242-12.315-135.175 14.985-14.951 35.144-22.247 56.498-22.247 27.108 0 56.145 11.757 78.973 34.536 26.792 26.732 38.371 62 33.542 92.674l32.692 32.744 32.688-32.744c-4.828-30.674 6.753-65.941 33.542-92.674 22.831-22.779 51.866-34.536 78.974-34.536 21.354 0 41.512 7.296 56.497 22.248 34.010 33.933 28.494 94.454-12.316 135.175zM176.512 57.231c-3.849-8.941-9.505-17.173-16.813-24.463-7.318-7.302-15.586-12.959-24.574-16.812-8.066-3.458-16.48-5.284-24.331-5.284-7.573 0-18.306 1.701-26.431 9.806-8.068 8.052-9.76 18.659-9.76 26.144 0 7.771 1.821 16.105 5.263 24.106 3.85 8.942 9.507 17.173 16.813 24.463 7.317 7.303 15.586 12.957 24.575 16.812 8.067 3.457 16.48 5.284 24.332 5.284 7.573 0 18.306-1.7 26.429-9.807 8.067-8.049 9.761-18.658 9.761-26.142 0.001-7.771-1.819-16.108-5.264-24.107zM256.002 146.702c-24.957 0-45.188 20.266-45.188 45.263 0 24.996 20.231 45.26 45.188 45.26s45.186-20.264 45.186-45.26c0-24.999-20.23-45.263-45.186-45.263zM427.636 20.479c-8.124-8.104-18.856-9.806-26.43-9.806-7.852 0-16.265 1.826-24.333 5.284-8.986 3.853-17.254 9.51-24.571 16.812-7.307 7.29-12.963 15.521-16.813 24.463-3.443 7.999-5.263 16.336-5.263 24.106 0 7.483 1.692 18.094 9.76 26.143 8.123 8.104 18.856 9.807 26.43 9.807 7.85 0 16.265-1.827 24.33-5.284 8.989-3.854 17.258-9.509 24.575-16.812 7.305-7.29 12.962-15.521 16.813-24.463 3.442-7.999 5.263-16.335 5.263-24.106-0.001-7.485-1.695-18.093-9.761-26.144z" />
<glyph unicode="&#xe601;" d="M432 480c-44.186 0-80-35.816-80-80v-240h64v-192h96v432c0 44.184-35.817 80-80 80zM208 480c-8.838 0-16-7.164-16-16v-112c0-4.418-7.164-8-16-8-8.838 0-16 3.582-16 8v112c0 8.836-7.164 16-16 16-8.837 0-16-7.164-16-16v-112c0-4.418-7.164-8-16-8-8.837 0-16 3.582-16 8v112c0 8.836-7.164 16-16 16-8.837 0-16-7.164-16-16v-112c0-4.418-7.164-8-16-8s-16 3.582-16 8v112c0 8.836-7.164 16-16 16s-16-7.164-16-16v-144c0-14.159 12.529-22.055 26.502-32 17.605-12.532 37.498-28.318 37.498-64v-256h96v256c0 35.682 19.893 51.468 37.496 64 13.973 9.945 26.504 17.841 26.504 32v144c0 8.836-7.163 16-16 16z" />
<glyph unicode="&#xe602;" d="M448 352v64h-448v-352c0-17.673 14.327-32 32-32h432c26.511 0 48 21.489 48 48v272h-64zM416 64h-384v320h384v-320zM64 320h320v-32h-320zM256 256h128v-32h-128zM256 192h128v-32h-128zM256 128h96v-32h-96zM64 256h160v-160h-160z" />
<glyph unicode="&#xe603;" d="M448 32l5.5-4q-5.5-5-5.5-12 0-6.5 4.75-11.25t11.25-4.75h26.5l8.5-6.5q-19.5-25.5-51-25.5h-384q-26.5 0-45.25 18.75t-18.75 45.25v384q0 26.5 18.75 45.25t45.25 18.75h384q31.5 0 51-25.5l-8.5-6.5h-26.5q-6.5 0-11.25-4.75t-4.75-11.25q0-7 5.5-12l-5.5-4 64-48-64-48 64-48-64-48 64-48-64-48 64-48zM272 0h32q6.5 0 11.25 4.75t4.75 11.25-4.75 11.25-11.25 4.75h-32q-6.5 0-11.25-4.75t-4.75-11.25 4.75-11.25 11.25-4.75zM352 96q26.5 0 45.25 18.75t18.75 45.25-18.75 45.25-45.25 18.75-45.25-18.75-18.75-45.25 18.75-45.25 45.25-18.75zM176 0h32q6.5 0 11.25 4.75t4.75 11.25-4.75 11.25-11.25 4.75h-32q-6.5 0-11.25-4.75t-4.75-11.25 4.75-11.25 11.25-4.75zM80 0h32q6.5 0 11.25 4.75t4.75 11.25-4.75 11.25-11.25 4.75h-32q-6.5 0-11.25-4.75t-4.75-11.25 4.75-11.25 11.25-4.75zM32 64q0-6.5 4.75-11.25t11.25-4.75 11.25 4.75 4.75 11.25v32q0 6.5-4.75 11.25t-11.25 4.75-11.25-4.75-4.75-11.25v-32zM32 160q0-6.5 4.75-11.25t11.25-4.75 11.25 4.75 4.75 11.25v32q0 6.5-4.75 11.25t-11.25 4.75-11.25-4.75-4.75-11.25v-32zM32 256q0-6.5 4.75-11.25t11.25-4.75 11.25 4.75 4.75 11.25v32q0 6.5-4.75 11.25t-11.25 4.75-11.25-4.75-4.75-11.25v-32zM48 400q-6.5 0-11.25-4.75t-4.75-11.25v-32q0-6.5 4.75-11.25t11.25-4.75 11.25 4.75 4.75 11.25v32q0 6.5-4.75 11.25t-11.25 4.75zM112 448h-32q-6.5 0-11.25-4.75t-4.75-11.25 4.75-11.25 11.25-4.75h32q6.5 0 11.25 4.75t4.75 11.25-4.75 11.25-11.25 4.75zM208 448h-32q-6.5 0-11.25-4.75t-4.75-11.25 4.75-11.25 11.25-4.75h32q6.5 0 11.25 4.75t4.75 11.25-4.75 11.25-11.25 4.75zM192 352q-26.5 0-45.25-18.75t-18.75-45.25 18.75-45.25 45.25-18.75 45.25 18.75 18.75 45.25-18.75 45.25-45.25 18.75zM304 448h-32q-6.5 0-11.25-4.75t-4.75-11.25 4.75-11.25 11.25-4.75h32q6.5 0 11.25 4.75t4.75 11.25-4.75 11.25-11.25 4.75zM344.75 349.75q-5.25 3.25-11.25 1.75t-9.5-7.5l-130-224.5q-3-5.5-1.5-12t7-9.75 11.5-1.5 9 7.25l130.5 225q3 5.5 1.25 11.75t-7 9.5zM400 448h-32q-6.5 0-11.25-4.75t-4.75-11.25 4.75-11.25 11.25-4.75h32q6.5 0 11.25 4.75t4.75 11.25-4.75 11.25-11.25 4.75zM400 32h-32q-6.5 0-11.25-4.75t-4.75-11.25 4.75-11.25 11.25-4.75h32q6.5 0 11.25 4.75t4.75 11.25-4.75 11.25-11.25 4.75zM192.25 256q-13.25 0-22.75 9.5t-9.5 22.75 9.5 22.5 22.75 9.25 22.5-9.25 9.25-22.5-9.25-22.75-22.5-9.5zM352.25 192q13.25 0 22.5-9.25t9.25-22.5-9.25-22.75-22.5-9.5-22.75 9.5-9.5 22.75 9.5 22.5 22.75 9.25z" />
<glyph unicode="&#xe604;" d="M240 448c-132.548 0-240-107.452-240-240 0-132.549 107.452-240 240-240 132.549 0 240 107.451 240 240 0 132.548-107.451 240-240 240zM240 16c-106.039 0-192 85.961-192 192s85.961 192 192 192c106.039 0 192-85.961 192-192 0-106.039-85.961-192-192-192zM256 224v64h64v32h-64v32h-32v-32h-64v-128h64v-64h-64v-32h64v-32h32v32h64.001l-0.001 128h-64zM224 224h-32v64h32v-64zM288.001 128h-32.001v64h32.001v-64z" />
<glyph unicode="&#xe605;" d="M485.5 356h-0.5l-35.5 59.5-63.5-8.5 40-60-106-16.5-40.5 60-58-9 40.5-60-110-17.5-38.5 63.5-61-12 40.5-60.5-47.5-7.5h52l-32-63.5h64l32 63.5h96l-32-63.5h64l32 63.5h96l-32-63.5h64l32 63.5q13 0 22.5-9.25t9.5-22.25v-256q0-13.5-9.5-22.75t-22.5-9.25h-447.5q-13.5 0-22.75 9.25t-9.25 22.75v256q0 13 9.25 22.25t22.75 9.25q-2.5 1-6 2.75t-10.25 8.75-8.25 15.5l-8 62q-1.5 12.5 6.75 22.75t21.25 11.75l441 68.5q13 1.5 23.25-6.5t11.75-20.5l8-62q1.5-12.5-6.75-22.75t-21.25-11.75zM81.5 32h352q6.5 0 11.25 4.75t4.75 11.25-4.75 11.25-11.25 4.75h-352q-6.5 0-11.25-4.75t-4.75-11.25 4.75-11.25 11.25-4.75zM81.5 128h352q6.5 0 11.25 4.5t4.75 11.25-4.75 11.5-11.25 4.75h-352q-6.5 0-11.25-4.75t-4.75-11.5 4.75-11.25 11.25-4.5z" />
<glyph unicode="&#xe606;" d="M68.147 104.535c-37.598 0-68.146-30.667-68.146-68.038 0-37.577 30.55-67.901 68.146-67.901 37.733 0 68.247 30.324 68.247 67.901-0.001 37.371-30.512 68.038-68.247 68.038zM0.078 306.035v-98.129c63.892 0 123.979-24.986 169.229-70.256 45.192-45.159 70.141-105.518 70.141-169.65h98.561c-0.001 186.41-151.641 338.035-337.931 338.035zM0.194 480v-98.178c227.891 0 413.378-185.667 413.378-413.822h98.428c0 282.235-229.627 512-511.806 512z" />
<glyph unicode="&#xe607;" d="M476.698 442.679l-2.014 2.021c-47.074 47.067-124.097 47.067-171.163 0l-109.053-109.068c-47.067-47.066-47.067-124.088 0-171.155l2.013-2.013c3.916-3.924 8.073-7.462 12.368-10.729l39.924 39.925c-4.651 2.747-9.063 6.036-13.058 10.030l-2.021 2.021c-25.557 25.549-25.557 67.136 0 92.695l109.064 109.056c25.558 25.559 67.137 25.559 92.693 0l2.021-2.012c25.55-25.558 25.55-67.146 0-92.695l-49.343-49.343c8.566-21.154 12.624-43.7 12.269-66.193l76.302 76.302c47.067 47.068 47.067 124.089-0.002 171.158zM315.521 285.533c-3.916 3.916-8.073 7.461-12.368 10.72l-39.924-39.916c4.652-2.748 9.063-6.037 13.058-10.031l2.021-2.020c25.558-25.558 25.558-67.136 0-92.694l-109.065-109.067c-25.559-25.551-67.138-25.551-92.694 0l-2.021 2.021c-25.549 25.56-25.549 67.138 0 92.694l49.344 49.343c-8.567 21.153-12.623 43.701-12.269 66.193l-76.301-76.299c-47.068-47.066-47.068-124.089 0-171.162l2.013-2.016c47.076-47.064 124.096-47.064 171.164 0l109.055 109.059c47.067 47.066 47.067 124.097 0 171.163l-2.013 2.012z" />
<glyph unicode="&#xe608;" d="M432 128c-22.58 0-42.96-9.369-57.506-24.415l-215.502 107.751c0.657 4.126 1.008 8.353 1.008 12.664s-0.351 8.538-1.008 12.663l215.502 107.751c14.546-15.045 34.926-24.414 57.506-24.414 44.183 0 80 35.817 80 80s-35.817 80-80 80-80-35.817-80-80c0-4.311 0.352-8.538 1.008-12.663l-215.502-107.752c-14.546 15.045-34.926 24.415-57.506 24.415-44.183 0-80-35.818-80-80 0-44.184 35.817-80 80-80 22.58 0 42.96 9.369 57.506 24.414l215.502-107.751c-0.656-4.125-1.008-8.352-1.008-12.663 0-44.184 35.817-80 80-80s80 35.816 80 80c0 44.182-35.817 80-80 80z" />
<glyph unicode="&#xe609;" d="M512 32q0-13-9.25-22.5t-22.75-9.5h-448q-13.5 0-22.75 9.5t-9.25 22.5q0 8.5 4.5 16l219.5 368q4 9 5.75 12t6 9.25 9 8.5 11.25 2.25q8.5 0 14.75-5t9.5-10.75 7.75-16.25l219.5-368q4.5-7.5 4.5-16zM288 288q0 13.5-9.25 22.75t-22.75 9.25-22.75-9.25-9.25-22.75v-96q0-13 9.5-22.5t22.5-9.5 22.5 9.5 9.5 22.5v96zM255.75 128q-13.25 0-22.5-9.25t-9.25-22.5 9.5-22.75 22.5-9.5 22.5 9.5 9.5 22.75-9.5 22.5-22.75 9.25z" />
<glyph unicode="&#xe60a;" d="M480 192h-256q-13 0-22.5 9.25t-9.5 22.5 9.5 22.75 22.5 9.5h256q13 0 22.5-9.5t9.5-22.75-9.5-22.5-22.5-9.25zM480 384h-256q-13 0-22.5 9.25t-9.5 22.5 9.5 22.75 22.5 9.5h256q13 0 22.5-9.5t9.5-22.75-9.5-22.5-22.5-9.25zM96-32h-64q-13.5 0-22.75 9.5t-9.25 22.5v64q0 13 9.25 22.5t22.75 9.5h64q13 0 22.5-9.5t9.5-22.5v-64q0-13.5-9.5-22.75t-22.5-9.25zM96 160h-64q-13.5 0-22.75 9.25t-9.25 22.75v64q0 13 9.25 22.5t22.75 9.5h64q13 0 22.5-9.5t9.5-22.5v-64q0-13.5-9.5-22.75t-22.5-9.25zM96 352h-64q-13.5 0-22.75 9.25t-9.25 22.75v64q0 13 9.25 22.5t22.75 9.5h64q13 0 22.5-9.5t9.5-22.5v-64q0-13.5-9.5-22.75t-22.5-9.25zM224 64h256q13 0 22.5-9.5t9.5-22.75-9.5-22.5-22.5-9.25h-256q-13.5 0-22.75 9.25t-9.25 22.5 9.25 22.75 22.75 9.5z" />
<glyph unicode="&#xe60b;" d="M311.413 128.632c-11.055 1.759-11.307 32.157-11.307 32.157s32.484 32.158 39.564 75.401c19.045 0 30.809 45.973 11.761 62.148 0.795 17.027 24.48 133.662-95.431 133.662-119.911 0-96.225-116.635-95.432-133.662-19.047-16.175-7.285-62.148 11.761-62.148 7.079-43.243 39.564-75.401 39.564-75.401s-0.252-30.398-11.307-32.157c-35.61-5.666-168.586-64.317-168.586-128.632h448c0 64.315-132.976 122.966-168.587 128.632z" />
<glyph unicode="&#xe60c;" d="M0 448v-448h512v448h-512zM192 160v96h128v-96h-128zM320 128v-96h-128v96h128zM320 384v-96h-128v96h128zM160 384v-96h-128v96h128zM32 256h128v-96h-128v96zM352 256h128v-96h-128v96zM352 288v96h128v-96h-128zM32 128h128v-96h-128v96zM352 32v96h128v-96h-128z" />
<glyph unicode="&#xe60d;" d="M329.372 105.372l-105.372 105.373v141.255h64v-114.745l86.628-86.627zM256 480c-141.385 0-256-114.615-256-256s114.615-256 256-256 256 114.615 256 256-114.615 256-256 256zM256 32c-106.039 0-192 85.961-192 192s85.961 192 192 192c106.039 0 192-85.961 192-192 0-106.039-85.961-192-192-192z" />
<glyph unicode="&#xe60e;" d="M0 416v-416h512v416h-512zM480 32h-448v352h448v-352zM352 304c0 26.51 21.49 48 48 48s48-21.49 48-48c0-26.51-21.49-48-48-48-26.51 0-48 21.49-48 48zM448 64h-384l96 256 128-160 64 48z" />
<glyph unicode="&#xe60f;" d="M64 352v-320h448v320h-448zM480 85.333l-64 106.667-72.533-60.444-55.467 92.444-192-160v256h384v-234.667zM128 240c0 26.51 21.49 48 48 48s48-21.49 48-48c0-26.51-21.49-48-48-48-26.51 0-48 21.49-48 48zM448 416h-448v-320h32v288h416z" />
<glyph unicode="&#xe610;" d="M64 32h448v-64h-512v512h64zM144 64c-26.51 0-48 21.49-48 48s21.49 48 48 48c1.414 0 2.811-0.074 4.194-0.193l51.596 85.993c-4.92 7.535-7.79 16.531-7.79 26.201 0 26.51 21.49 48 48 48 26.51 0 48-21.49 48-48 0-9.671-2.87-18.666-7.79-26.201l51.596-85.993c1.383 0.119 2.78 0.193 4.194 0.193 1.068 0 2.124-0.047 3.175-0.115l85.178 149.061c-5.268 7.704-8.353 17.018-8.353 27.055 0 26.51 21.49 48 48 48 26.51 0 48-21.49 48-48 0-26.51-21.49-48-48-48-1.070 0-2.124 0.047-3.175 0.116l-85.178-149.062c5.268-7.703 8.353-17.018 8.353-27.055 0-26.51-21.49-48-48-48-26.51 0-48 21.49-48 48 0 9.67 2.87 18.666 7.789 26.201l-51.595 85.992c-1.383-0.119-2.78-0.193-4.194-0.193s-2.811 0.073-4.194 0.193l-51.596-85.993c4.92-7.534 7.79-16.53 7.79-26.2 0-26.51-21.49-48-48-48z" />
<glyph unicode="&#xe611;" d="M0 384l160 64v-384l-160-64zM352 384v-384l-160 53.333v384zM512 448v-384l-128-51.2v384z" />
<glyph unicode="&#xe612;" d="M160 448h-128v-128h128v128zM192 480v0-192h-192v192h192zM64 416h64v-64h-64zM480 448h-128v-128h128v128zM512 480v0-192h-192v192h192zM384 416h64v-64h-64zM160 128h-128v-128h128v128zM192 160v0-192h-192v192h192zM64 96h64v-64h-64zM224 480h32v-32h-32zM256 448h32v-32h-32zM224 416h32v-32h-32zM256 384h32v-32h-32zM224 352h32v-32h-32zM256 320h32v-32h-32zM224 288h32v-32h-32zM224 224h32v-32h-32zM256 192h32v-32h-32zM224 160h32v-32h-32zM256 128h32v-32h-32zM224 96h32v-32h-32zM256 64h32v-32h-32zM224 32h32v-32h-32zM256 0h32v-32h-32zM480 224h32v-32h-32zM32 224h32v-32h-32zM64 256h32v-32h-32zM0 256h32v-32h-32zM128 256h32v-32h-32zM160 224h32v-32h-32zM192 256h32v-32h-32zM288 224h32v-32h-32zM320 256h32v-32h-32zM352 224h32v-32h-32zM384 256h32v-32h-32zM416 224h32v-32h-32zM448 256h32v-32h-32zM480 160h32v-32h-32zM288 160h32v-32h-32zM320 192h32v-32h-32zM352 160h32v-32h-32zM416 160h32v-32h-32zM448 192h32v-32h-32zM480 96h32v-32h-32zM288 96h32v-32h-32zM320 128h32v-32h-32zM384 128h32v-32h-32zM416 96h32v-32h-32zM448 128h32v-32h-32zM480 32h32v-32h-32zM320 64h32v-32h-32zM352 32h32v-32h-32zM384 64h32v-32h-32zM416 32h32v-32h-32zM320 0h32v-32h-32zM384 0h32v-32h-32zM448 0h32v-32h-32z" />
<glyph unicode="&#xe613;" d="M463.906 480h-144.281c-26.453 0-63.398-15.303-82.102-34.007l-223.495-223.495c-18.704-18.704-18.704-49.312 0-68.016l172.455-172.453c18.704-18.705 49.311-18.705 68.015 0l223.495 223.494c18.704 18.705 34.007 55.651 34.007 82.102v144.281c0 26.452-21.643 48.094-48.094 48.094zM400 320c-26.51 0-48 21.49-48 48s21.49 48 48 48 48-21.49 48-48-21.49-48-48-48z" />
<glyph unicode="&#xe614;" d="M480 480h-256c-17.688 0-32-14.312-32-32v-256c0-17.688 14.312-32 32-32h256c17.688 0 32 14.312 32 32v256c0 17.688-14.312 32-32 32zM448 224h-192v192h192v-192zM256 32h-192v192h64v64h-96c-17.688 0-32-14.312-32-32v-256c0-17.688 14.312-32 32-32h256c17.688 0 32 14.312 32 32v96h-64v-64z" />
<glyph unicode="&#xe615;" d="M496 288h-192q-6.5 0-11.25 4.75t-4.75 11.25 4.75 11.25 11.25 4.75h192q6.5 0 11.25-4.75t4.75-11.25-4.75-11.25-11.25-4.75zM304 384h128q6.5 0 11.25-4.75t4.75-11.25-4.75-11.25-11.25-4.75h-128q-6.5 0-11.25 4.75t-4.75 11.25 4.75 11.25 11.25 4.75zM496 416h-192q-6.5 0-11.25 4.75t-4.75 11.25 4.75 11.25 11.25 4.75h192q6.5 0 11.25-4.75t4.75-11.25-4.75-11.25-11.25-4.75zM224 224h-192q-13.5 0-22.75 9.5t-9.25 22.5v160q0 13 9.25 22.5t22.75 9.5h192q13 0 22.5-9.5t9.5-22.5v-160q0-13-9.5-22.5t-22.5-9.5zM304 224q-6.5 0-11.25 4.75t-4.75 11.25 4.75 11.25 11.25 4.75h160q6.5 0 11.25-4.75t4.75-11.25-4.75-11.25-11.25-4.75h-160zM16 192h480q6.5 0 11.25-4.75t4.75-11.25-4.75-11.25-11.25-4.75h-480q-6.5 0-11.25 4.75t-4.75 11.25 4.75 11.25 11.25 4.75zM16 128h416q6.5 0 11.25-4.75t4.75-11.25-4.75-11.25-11.25-4.75h-416q-6.5 0-11.25 4.75t-4.75 11.25 4.75 11.25 11.25 4.75zM16 64h448q6.5 0 11.25-4.75t4.75-11.25-4.75-11.25-11.25-4.75h-448q-6.5 0-11.25 4.75t-4.75 11.25 4.75 11.25 11.25 4.75zM16 0h384q6.5 0 11.25-4.75t4.75-11.25-4.75-11.25-11.25-4.75h-384q-6.5 0-11.25 4.75t-4.75 11.25 4.75 11.25 11.25 4.75z" />
<glyph unicode="&#xe616;" d="M460.8 355.2h-409.6c-28.16 0-51.2-23.040-51.2-51.2v-153.6c0-28.16 23.040-51.2 51.2-51.2h409.6c28.185 0 51.2 23.040 51.2 51.2v153.6c0 28.16-23.014 51.2-51.2 51.2zM460.8 150.4h-409.6v153.6h409.6v-153.6zM307.2 277.888h-102.4v-101.351h102.4v101.351zM179.2 277.888h-102.4v-101.351h102.4v101.351z" />
<glyph unicode="&#xe617;" d="M194.867 377.395c-9.395 8.832-22.093 8.832-31.513 0l-163.353-146.995 163.353-146.97c9.421-8.858 22.119-8.858 31.513 0s9.395 23.193 0 32.051l-126.823 114.919 126.848 114.893c9.369 8.858 9.369 23.219-0.025 32.103zM348.647 377.395c-9.421 8.832-22.093 8.832-31.514 0-9.395-8.883-8.909-23.219 0.538-32.077l126.285-114.918-126.31-114.919c-9.421-8.858-9.933-23.193-0.538-32.051 9.421-8.858 22.093-8.858 31.514 0l163.379 146.97-163.353 146.995z" />
<glyph unicode="&#xe618;" d="M199.68 172.262l-102.4 40.986v-34.663l102.4-40.986v34.663zM199.68 278.63l-102.4 40.96v-34.663l102.4-40.96v34.662zM475.161 456.397c-7.014 4.762-15.974 5.735-23.859 2.586l-195.303-78.131-195.303 78.131c-7.885 3.149-16.819 2.176-23.859-2.586-7.014-4.762-11.239-12.697-11.239-21.197v-327.68c0-10.471 6.375-19.865 16.077-23.783l204.365-81.741c0 0 4.198-1.357 4.966-1.51 1.664-0.307 3.328-0.486 4.992-0.486 1.639 0 3.328 0.179 4.966 0.512 0.768 0.154 4.966 1.536 4.966 1.536l204.339 81.715c9.753 3.891 16.128 13.286 16.128 23.757v327.68c0 8.499-4.224 16.435-11.238 21.197zM230.4 52.377l-163.84 65.536v286.925l163.84-65.562v-286.899zM445.44 117.888l-163.84-65.536v286.925l163.84 65.561v-286.95zM414.72 213.248l-102.425-40.986v-34.663l102.425 40.986v34.663zM414.72 319.591l-102.425-40.96v-34.662l102.425 40.96v34.663z" />
<glyph unicode="&#xe619;" d="M109.715 20.571v36.572q0 7.428-5.428 12.857t-12.857 5.428h-36.572q-7.428 0-12.857-5.428t-5.428-12.857v-36.572q0-7.428 5.428-12.857t12.857-5.428h36.572q7.428 0 12.857 5.428t5.428 12.857zM109.715 130.286v36.572q0 7.428-5.428 12.857t-12.857 5.428h-36.572q-7.428 0-12.857-5.428t-5.428-12.857v-36.572q0-7.428 5.428-12.857t12.857-5.428h36.572q7.428 0 12.857 5.428t5.428 12.857zM109.715 240v36.572q0 7.428-5.428 12.857t-12.857 5.429h-36.572q-7.428 0-12.857-5.428t-5.428-12.857v-36.571q0-7.428 5.428-12.857t12.857-5.429h36.572q7.428 0 12.857 5.428t5.428 12.857zM402.286 20.571v146.286q0 7.428-5.428 12.857t-12.857 5.428h-219.429q-7.429 0-12.857-5.428t-5.428-12.857v-146.286q0-7.428 5.428-12.857t12.857-5.428h219.429q7.428 0 12.857 5.428t5.428 12.857zM109.715 349.714v36.571q0 7.429-5.428 12.857t-12.857 5.429h-36.572q-7.428 0-12.857-5.429t-5.428-12.857v-36.571q0-7.428 5.428-12.857t12.857-5.428h36.572q7.428 0 12.857 5.428t5.428 12.857zM512 20.571v36.572q0 7.428-5.428 12.857t-12.857 5.428h-36.572q-7.428 0-12.857-5.428t-5.428-12.857v-36.572q0-7.428 5.428-12.857t12.857-5.428h36.572q7.428 0 12.857 5.428t5.428 12.857zM402.286 240v146.286q0 7.428-5.428 12.857t-12.857 5.428h-219.429q-7.429 0-12.857-5.428t-5.428-12.857v-146.286q0-7.428 5.428-12.857t12.857-5.429h219.429q7.428 0 12.857 5.428t5.428 12.857zM512 130.286v36.572q0 7.428-5.428 12.857t-12.857 5.428h-36.572q-7.428 0-12.857-5.428t-5.428-12.857v-36.572q0-7.428 5.428-12.857t12.857-5.428h36.572q7.428 0 12.857 5.428t5.428 12.857zM512 240v36.572q0 7.428-5.428 12.857t-12.857 5.429h-36.572q-7.428 0-12.857-5.428t-5.428-12.857v-36.571q0-7.428 5.428-12.857t12.857-5.429h36.572q7.428 0 12.857 5.428t5.428 12.857zM512 349.714v36.571q0 7.429-5.428 12.857t-12.857 5.429h-36.572q-7.428 0-12.857-5.429t-5.428-12.857v-36.571q0-7.428 5.428-12.857t12.857-5.428h36.572q7.428 0 12.857 5.428t5.428 12.857zM548.572 395.429v-384q0-18.857-13.428-32.286t-32.286-13.429h-457.143q-18.857 0-32.285 13.429t-13.428 32.286v384q0 18.857 13.428 32.286t32.285 13.428h457.143q18.857 0 32.286-13.428t13.428-32.286z" horiz-adv-x="549" />
<glyph unicode="&#xe61a;" d="M265.143 365.714q26.572 0 45.286-18.714t18.714-45.285v-201.143q0-26.286-18.714-45.143t-45.286-18.857h-201.143q-26.572 0-45.285 18.857t-18.715 45.143v201.143q0 26.572 18.715 45.286t45.285 18.714h201.143zM292.572 100.572v201.143q0 11.429-8 19.429t-19.428 8h-201.143q-11.428 0-19.428-8t-8-19.428v-201.143q0-11.428 8-19.428t19.428-8h201.143q11.428 0 19.428 8t8 19.428zM246.857 219.429q4 0 6.571-2.572t2.571-6.572v-18.286q0-4-2.571-6.572t-6.572-2.572h-164.571q-4 0-6.572 2.572t-2.572 6.572v18.286q0 4 2.572 6.572t6.572 2.572h164.571z" horiz-adv-x="329" />
<glyph unicode="&#xe61b;" d="M45.715 36.572h173.714v329.143h-182.857v-320q0-3.714 2.715-6.428t6.428-2.714zM438.857 45.714v320h-182.857v-329.143h173.714q3.714 0 6.428 2.714t2.714 6.428zM475.428 393.143v-347.428q0-18.857-13.428-32.286t-32.286-13.428h-384q-18.857 0-32.285 13.428t-13.428 32.286v347.428q0 18.857 13.428 32.286t32.285 13.428h384q18.857 0 32.286-13.428t13.428-32.286z" horiz-adv-x="476" />
<glyph unicode="&#xe61c;" d="M292.572 137.143v-18.286q0-4-2.572-6.572t-6.572-2.572h-201.143q-4 0-6.572 2.572t-2.572 6.572v18.286q0 4 2.572 6.572t6.572 2.572h201.143q4 0 6.572-2.572t2.572-6.572zM292.572 210.286v-18.286q0-4-2.572-6.572t-6.572-2.572h-201.143q-4 0-6.572 2.572t-2.572 6.572v18.286q0 4 2.572 6.572t6.572 2.571h201.143q4 0 6.572-2.571t2.572-6.572zM36.572 36.572h292.572v219.428h-118.857q-11.429 0-19.429 8t-8 19.429v118.857h-146.286v-365.714zM219.429 292.572h107.429q-2.857 8.286-6.286 11.714l-89.428 89.428q-3.429 3.429-11.714 6.286v-107.428zM365.714 283.429v-256q0-11.428-8-19.428t-19.428-8h-310.857q-11.428 0-19.428 8t-8 19.428v384q0 11.428 8 19.428t19.428 8h182.857q11.429 0 25.143-5.714t21.714-13.714l89.143-89.143q8-8 13.714-21.714t5.714-25.143z" horiz-adv-x="366" />
<glyph unicode="&#xe61d;" d="M416.5 352q-6 0-13.5 8.25t-15 19.5-21.75 26.25-30.25 25.5q-5.5 4-10.75 14.75t-5.25 17.25q0 7 4.75 11.5t11.25 4.5q8 0 39.75 0.25t40.75 0.25q7.5 0 15.5-8t12-16l4.5-8v-64q0-13-9.5-22.5t-22.5-9.5zM352 0q0-13.5-9.25-22.75t-22.75-9.25h-160q-13 0-22.5 9.25t-9.5 22.75q0 5.5 10 12.75t22 13.75 22 16.5 10 21v384q0 18 12.75 25t35.5 7 35.25-7 12.5-25v-384q0-11 10-21t22-16.5 22-13.75 10-12.75zM144 432q-16-11-30-26t-21.5-26.25-15-19.5-13.5-8.25q-13.5 0-22.75 9.5t-9.25 22.5v64q1.5 3.5 4.5 8.75t11.25 14.25 16.25 9h80q7 0 11.5-4.75t4.5-11.25q0-7-5.25-17.75t-10.75-14.25z" />
<glyph unicode="&#xe61e;" d="M448-32h-384q-26.5 0-45.25 18.75t-18.75 45.25v384q0 26.5 18.75 45.25t45.25 18.75h384q26.5 0 45.25-18.75t18.75-45.25v-384q0-26.5-18.75-45.25t-45.25-18.75zM408 278l-93 20-48 81.5q-4.5 4.5-10.75 4.5t-10.75-4.5l-48.5-81.5-93-20q-5.5-3-7.25-9t0.75-11.5l64.5-72-7.5-91q1-6.5 4.75-11t9.75-3.5l87 38 87.5-38q5.5-1 9.5 3.5t5 11l-7.5 91 64 72q3 5.5 1 11.5t-7.5 9z" />
<glyph unicode="&#xe61f;" d="M0-32v512h512v-512h-512zM480 448h-448v-448h448v448zM448 128h-384v288h384v-288z" />
<glyph unicode="&#xe620;" d="M496-32h-480q-6.5 0-11.25 4.75t-4.75 11.25v352q0 6.5 4.75 11.25t11.25 4.75h105.5l122.5 122.5 0.5 1q5 4.5 11.5 4.5t11.5-4.5l0.5-1 122.5-122.5h105.5q6.5 0 11.25-4.75t4.75-11.25v-352q0-6.5-4.75-11.25t-11.25-4.75zM256 441.5l-89.5-89.5h179zM448 288h-384v-256h384v256z" />
<glyph unicode="&#xe621;" d="M480 160.5h-448q-13 0-22.5 9.25t-9.5 22.75v191.5q0 13.5 9.5 22.75t22.5 9.25h448q13 0 22.5-9.25t9.5-22.75v-192q0-13-9.5-22.25t-22.5-9.25zM496 448h-480q-6.5 0-11.25 4.75t-4.75 11.5 4.75 11.25 11.25 4.5h480q6.5 0 11.25-4.5t4.75-11.25-4.75-11.5-11.25-4.75zM16 128.5h480q6.5 0 11.25-4.75t4.75-11.5-4.75-11.25-11.25-4.5h-163l47.5-88.5q5.5-9.5 2.75-20.25t-12.25-16.25-20-2.5-16 12.5l-62.5 115h-33l-62.5-115q-5.5-9.5-16-12.5t-20 2.5-12.25 16.25 2.75 20.25l47.5 88.5h-163q-6.5 0-11.25 4.5t-4.75 11.25 4.75 11.5 11.25 4.75z" />
<glyph unicode="&#xe622;" d="M448-32h-384q-26.5 0-45.25 18.75t-18.75 45.25v320l24 78q7 21.5 29.25 35.75t47.75 14.25h182q25.5 0 47.75-14.25t29.25-35.75l24-78h64q26.5 0 45.25-18.75t18.75-45.25v-256q0-26.5-18.75-45.25t-45.25-18.75zM448 272q0 6.5-4.75 11.25t-11.25 4.75h-352q-6.5 0-11.25-4.75t-4.75-11.25v-224q0-6.5 4.75-11.25t11.25-4.75h352q6.5 0 11.25 4.75t4.75 11.25v224zM320 128h-32v-32q0-13-9.5-22.5t-22.5-9.5-22.5 9.5-9.5 22.5v32h-32q-13.5 0-22.75 9.25t-9.25 22.75 9.25 22.75 22.75 9.25h32v32q0 13 9.5 22.5t22.5 9.5 22.5-9.25 9.5-22.75v-32h32q13 0 22.5-9.25t9.5-22.75-9.5-22.75-22.5-9.25z" />
<glyph unicode="&#xe623;" d="M448-32h-16q-6.5 0-11.25 4.75t-4.75 11.25v32q0 6.5 4.75 11.25t11.25 4.75 11.25 4.75 4.75 11.25 4.75 11.25 11.25 4.75h32q6.5 0 11.25-4.75t4.75-11.25v-16q0-26.5-18.75-45.25t-45.25-18.75zM496 128h-32q-6.5 0-11.25 4.75t-4.75 11.25v32q0 6.5 4.75 11.25t11.25 4.75h32q6.5 0 11.25-4.75t4.75-11.25v-32q0-6.5-4.75-11.25t-11.25-4.75zM496 256h-32q-6.5 0-11.25 4.75t-4.75 11.25v32q0 6.5 4.75 11.25t11.25 4.75h32q6.5 0 11.25-4.75t4.75-11.25v-32q0-6.5-4.75-11.25t-11.25-4.75zM496 384h-32q-6.5 0-11.25 4.75t-4.75 11.25-4.75 11.25-11.25 4.75-11.25 4.75-4.75 11.25v32q0 6.5 4.75 11.25t11.25 4.75h16q26.5 0 45.25-18.75t18.75-45.25v-16q0-6.5-4.75-11.25t-11.25-4.75zM336-32h-32q-6.5 0-11.25 4.75t-4.75 11.25v32q0 6.5 4.75 11.25t11.25 4.75h32q6.5 0 11.25-4.75t4.75-11.25v-32q0-6.5-4.75-11.25t-11.25-4.75zM336 416h-32q-6.5 0-11.25 4.75t-4.75 11.25v32q0 6.5 4.75 11.25t11.25 4.75h32q6.5 0 11.25-4.75t4.75-11.25v-32q0-6.5-4.75-11.25t-11.25-4.75zM208-32h-32q-6.5 0-11.25 4.75t-4.75 11.25v32q0 6.5 4.75 11.25t11.25 4.75h32q6.5 0 11.25-4.75t4.75-11.25v-32q0-6.5-4.75-11.25t-11.25-4.75zM208 416h-32q-6.5 0-11.25 4.75t-4.75 11.25v32q0 6.5 4.75 11.25t11.25 4.75h32q6.5 0 11.25-4.75t4.75-11.25v-32q0-6.5-4.75-11.25t-11.25-4.75zM80-32h-16q-26.5 0-45.25 18.75t-18.75 45.25v16q0 6.5 4.75 11.25t11.25 4.75h32q6.5 0 11.25-4.75t4.75-11.25 4.75-11.25 11.25-4.75 11.25-4.75 4.75-11.25v-32q0-6.5-4.75-11.25t-11.25-4.75zM80 416q-6.5 0-11.25-4.75t-4.75-11.25-4.75-11.25-11.25-4.75h-32q-6.5 0-11.25 4.75t-4.75 11.25v16q0 26.5 18.75 45.25t45.25 18.75h16q6.5 0 11.25-4.75t4.75-11.25v-32q0-6.5-4.75-11.25t-11.25-4.75zM16 320h32q6.5 0 11.25-4.75t4.75-11.25v-32q0-6.5-4.75-11.25t-11.25-4.75h-32q-6.5 0-11.25 4.75t-4.75 11.25v32q0 6.5 4.75 11.25t11.25 4.75zM16 192h32q6.5 0 11.25-4.75t4.75-11.25v-32q0-6.5-4.75-11.25t-11.25-4.75h-32q-6.5 0-11.25 4.75t-4.75 11.25v32q0 6.5 4.75 11.25t11.25 4.75z" />
<glyph unicode="&#xe624;" d="M480 96h-83l46.5-80.5q7-11.5 3.5-24t-15-19.25-24.25-3.25-19.25 15l-65.5 112h-35v-96q0-13-9.5-22.5t-22.75-9.5-22.5 9.5-9.25 22.5v96h-35l-65.5-112q-6.5-11.5-19.25-15t-24.25 3.25-15 19.25 3.5 24l46.5 80.5h-83q-13 0-22.5 9.25t-9.5 22.75v288q0 13 9.5 22.5t22.5 9.5h192q0 13 9.5 22.5t22.5 9.5 22.5-9.5 9.5-22.5h192q13 0 22.5-9.5t9.5-22.5v-288q0-13.5-9.5-22.75t-22.5-9.25z" />
<glyph unicode="&#xe625;" d="M503 139.5l-162.5-162.5q-9-9-22.25-9t-22.25 9l-287 287q-9 9-9 39.5v144q0 13.5 9.5 22.75t22.5 9.25h144q31 0 40-9l287-286.5q9-9.5 9-22.5t-9-22zM128 416q-26.5 0-45.25-18.75t-18.75-45.25 18.75-45.25 45.25-18.75 45.25 18.75 18.75 45.25-18.75 45.25-45.25 18.75zM202 203.5q-4.5 4.5-10.75 4.5t-10.75-4.5-4.5-11 4.5-11l129-129q4.5-4.5 11-4.5t11 4.5 4.5 10.75-4.5 10.75zM228.5 251.5q-4.5-4.5-4.5-11t4.5-11l129-129q4.5-4.5 11-4.5t11 4.5 4.5 10.75-4.5 10.75l-129.5 129.5q-4.5 4.5-10.75 4.5t-10.75-4.5zM427.5 170l-129.5 129.5q-4.5 4.5-10.75 4.5t-10.75-4.5-4.5-11 4.5-11l129-129q4.5-4.5 11-4.5t11 4.5 4.5 10.75-4.5 10.75z" />
<glyph unicode="&#xe626;" d="M416.25-32q-13.25 0-22.5 9.25t-9.25 22.75v176q0 6.5-4.75 11.25t-11.25 4.75h-224.5q-6.5 0-11.25-4.75t-4.75-11.25v-176q0-13.5-9.25-22.75t-22.75-9.25-22.75 9.25-9.25 22.75v448q0 13 9.25 22.5t22.75 9.5 22.75-9.5 9.25-22.5v-176q0-6.5 4.75-11.25t11.25-4.75h224.5q6.5 0 11.25 4.75t4.75 11.25v176q0 13 9.25 22.5t22.5 9.5 22.75-9.25 9.5-22.75v-448q0-13.5-9.5-22.75t-22.75-9.25z" />
<glyph unicode="&#xe627;" d="M512 265.372c0 100.463-29.396 181.969-65.741 182.613 0.146 0.003 0.289 0.015 0.436 0.015h-41.471c0 0-97.4-73.168-237.615-101.877-4.28-22.646-7.015-49.637-7.015-80.751 0-31.114 2.733-58.104 7.015-80.75 140.214-28.709 237.615-101.878 237.615-101.878h41.471c-0.146 0-0.289 0.012-0.436 0.016 36.348 0.644 65.741 82.149 65.741 182.612zM432.412 110.374c-4.691 0-9.766 4.871-12.373 7.774-6.315 7.032-12.396 17.98-17.594 31.664-11.628 30.616-18.033 71.655-18.033 115.562 0 43.905 6.405 84.945 18.033 115.561 5.197 13.684 11.281 24.633 17.594 31.664 2.607 2.906 7.682 7.776 12.373 7.776 4.69 0 9.768-4.872 12.372-7.776 6.317-7.032 12.398-17.979 17.594-31.664 11.629-30.615 18.034-71.656 18.034-115.561 0-43.902-6.405-84.944-18.034-115.562-5.195-13.684-11.281-24.632-17.594-31.664-2.604-2.903-7.68-7.774-12.372-7.774zM125.906 265.372c0 25.975 1.905 51.215 5.526 74.547-23.686-3.277-44.471-5.162-70.17-5.162-33.529 0-33.529 0-33.529 0l-27.733-47.343v-44.085l27.73-47.343c0 0 0 0 33.53 0 25.699 0 46.484-1.887 70.17-5.162-3.618 23.332-5.524 48.573-5.524 74.548zM184.075 158.914l-63.999 12.255 40.921-160.772c2.118-8.317 10.372-12.519 18.343-9.327l59.278 23.726c7.972 3.188 11.164 11.982 7.098 19.542l-61.641 114.576zM432.412 205.635c-1.809 0-3.764 1.877-4.769 2.996-2.435 2.71-4.778 6.93-6.781 12.204-4.481 11.8-6.95 27.617-6.95 44.539 0 16.922 2.469 32.739 6.95 44.539 2.003 5.274 4.348 9.494 6.781 12.204 1.005 1.12 2.96 2.997 4.769 2.997 1.808 0 3.765-1.878 4.769-2.997 2.435-2.71 4.778-6.929 6.78-12.204 4.482-11.799 6.951-27.617 6.951-44.539 0-16.921-2.469-32.739-6.951-44.539-2.002-5.274-4.348-9.494-6.78-12.204-1.004-1.119-2.96-2.996-4.769-2.996z" />
<glyph unicode="&#xe628;" d="M256 480c-141.385 0-256-114.615-256-256s114.615-256 256-256 256 114.615 256 256-114.615 256-256 256zM256 16c-114.875 0-208 93.125-208 208s93.125 208 208 208 208-93.125 208-208-93.125-208-208-208zM224 352h64v-64h-64zM320 96h-128v32h32v96h-32v32h96v-128h32z" />
<glyph unicode="&#xe629;" d="M256 480c-141.385 0-256-114.615-256-256s114.615-256 256-256 256 114.615 256 256-114.615 256-256 256zM256 32c-106.039 0-192 85.961-192 192s85.961 192 192 192c106.039 0 192-85.961 192-192 0-106.039-85.961-192-192-192zM160 224c0 53.019 42.981 96 96 96s96-42.981 96-96c0-53.019-42.981-96-96-96-53.019 0-96 42.981-96 96z" />
<glyph unicode="&#xe62a;" d="M409.6 409.6h-307.2c-28.16 0-51.2-23.040-51.2-51.2v-179.2c0-28.16 23.040-51.2 51.2-51.2h102.4l102.4-76.8v76.8h102.4c28.16 0 51.2 23.040 51.2 51.2v179.2c0 28.16-23.040 51.2-51.2 51.2z" />
<glyph unicode="&#xe62b;" d="M389.094 256h-266.214c-14.157 0-15.36-11.469-15.36-25.6s1.203-25.6 15.36-25.6h266.214c14.157 0 15.385 11.469 15.385 25.6s-1.229 25.6-15.385 25.6z" />
<glyph unicode="&#xe62c;" d="M286.233 118.938c0 37.145 28.16 57.677 74.087 88.089 56.192 37.248 126.080 83.584 126.080 193.511 0 9.907-8.089 17.92-18.099 17.92h-87.834c-12.416 22.938-49.357 47.462-124.467 47.462-75.085 0-112.051-24.525-124.442-47.462h-87.834c-10.010 0-18.125-8.013-18.125-17.92 0-109.927 69.913-156.262 126.105-193.485 45.952-30.413 74.112-50.944 74.112-88.089v-33.562c-48.256-5.376-83.712-23.219-83.712-44.442 0-25.447 50.995-46.080 113.894-46.080 62.925 0 113.92 20.634 113.92 46.080 0 21.223-35.456 39.065-83.712 44.442v33.536zM357.299 248.32c14.541 30.72 26.035 72.371 27.878 134.298h64.231c-6.118-69.094-47.667-104.013-92.109-134.298zM256 434.534c69.939 0.026 97.28-28.569 97.255-39.168 0-10.675-27.264-39.245-97.255-39.296-69.939 0.077-97.229 28.621-97.229 39.296-0.025 10.599 27.29 39.219 97.229 39.168zM62.617 382.618h64.205c1.869-61.926 13.363-103.578 27.879-134.298-44.441 30.285-85.965 65.203-92.083 134.298z" />
<glyph unicode="&#xe62d;" d="M493.849 476.007c-2.765 8.064-11.495 12.313-19.481 9.523s-12.185-11.623-9.395-19.712c23.552-68.352-23.194-119.399-58.803-146.714l-14.413 20.839c-4.813 6.963-15.667 12.774-24.064 12.903l-80.768-0.384c-8.397 0.128-20.889-3.763-27.801-8.627l-237.977-168.653c-11.52-8.166-14.361-24.243-6.272-35.917l108.186-156.339c8.064-11.674 21.043-10.266 32.563-2.125l237.978 168.679c6.912 4.864 14.771 15.462 17.562 23.501l25.293 80.538c2.739 8.038 1.075 20.327-3.738 27.289l-8.806 12.697c47.846 36.992 97.51 102.451 69.939 182.502zM383.13 236.493c-18.457-13.082-43.879-8.525-56.807 10.137-12.902 18.663-8.423 44.39 10.035 57.472 14.643 10.394 33.664 9.625 47.36-0.461-6.912-4.198-11.623-6.605-12.519-7.040-7.629-3.635-10.906-12.851-7.296-20.582 2.611-5.607 8.089-8.909 13.849-8.909 2.176 0 4.403 0.486 6.502 1.485 4.889 2.329 10.189 5.171 15.693 8.473 2.457-15.181-3.533-31.155-16.819-40.576z" />
<glyph unicode="&#xe62e;" d="M460.8 358.4h-409.6c-28.16 0-51.2-23.040-51.2-51.2v-153.6c0-28.16 23.040-51.2 51.2-51.2h409.6c28.16 0 51.2 23.040 51.2 51.2v153.6c0 28.16-23.040 51.2-51.2 51.2zM460.8 153.6h-409.6v153.6h409.6v-153.6z" />
<glyph unicode="&#xe62f;" d="M471.040 435.2h-430.080c-8.474 0-15.36-6.887-15.36-15.36v-61.44h460.8v61.44c0 8.474-6.887 15.36-15.36 15.36zM51.2 61.44c0-19.712 16.128-35.84 35.84-35.84h337.92c19.738 0 35.84 16.128 35.84 35.84v271.36h-409.6v-271.36zM179.2 281.6h153.6v-51.2h-153.6v51.2z" />
<glyph unicode="&#xe630;" d="M256 373.76c-167.962 0-256-123.725-256-143.36s88.038-143.36 256-143.36 256 123.725 256 143.36-88.038 143.36-256 143.36zM256 120.115c-62.822 0-113.767 49.382-113.767 110.285s50.944 110.285 113.767 110.285c62.848 0 113.792-49.382 113.792-110.285s-50.944-110.285-113.792-110.285zM256 230.4c-10.393 11.417 16.998 55.117 0 55.117-31.411 0-56.883-24.679-56.883-55.117s25.472-55.143 56.883-55.143c31.437 0 56.909 24.704 56.909 55.143 0 13.977-48.026-9.728-56.909 0z" />
<glyph unicode="&#xe631;" d="M201.143 384q0-7.429-5.429-12.857t-12.857-5.428h-36.571v-292.572h36.572q7.428 0 12.857-5.428t5.429-12.857-5.428-12.857l-73.143-73.143q-5.428-5.428-12.857-5.428t-12.857 5.428l-73.143 73.143q-5.428 5.428-5.428 12.857t5.428 12.857 12.857 5.428h36.572v292.572h-36.572q-7.428 0-12.857 5.428t-5.428 12.857 5.428 12.857l73.143 73.143q5.428 5.429 12.857 5.429t12.857-5.429l73.143-73.143q5.428-5.428 5.428-12.857z" horiz-adv-x="220" />
<glyph unicode="&#xe632;" d="M103.715 36.572l26 26-67.143 67.143-26-26v-30.572h36.572v-36.572h30.572zM253.143 301.714q0 6.286-6.286 6.286-2.857 0-4.857-2l-154.857-154.857q-2-2-2-4.857 0-6.286 6.285-6.286 2.857 0 4.857 2l154.857 154.857q2 2 2 4.857zM237.714 356.572l118.857-118.857-237.714-237.714h-118.857v118.857zM432.857 329.143q0-15.143-10.572-25.714l-47.428-47.428-118.857 118.857 47.428 47.143q10.286 10.857 25.714 10.857 15.143 0 26-10.857l67.143-66.857q10.572-11.143 10.572-26z" horiz-adv-x="439" />
<glyph unicode="&#xe633;" d="M91.428 256h146.286v54.857q0 30.286-21.428 51.714t-51.714 21.428-51.715-21.428-21.428-51.714v-54.857zM329.143 228.572v-164.571q0-11.428-8-19.428t-19.428-8h-274.286q-11.428 0-19.428 8t-8 19.428v164.571q0 11.429 8 19.429t19.428 8h9.143v54.857q0 52.572 37.715 90.286t90.285 37.714 90.285-37.714 37.714-90.286v-54.857h9.143q11.428 0 19.428-8t8-19.428z" horiz-adv-x="329" />
<glyph unicode="&#xe634;" d="M91.428 402.286q0-20.572-18.285-31.428v-361.714q0-3.714-2.715-6.428t-6.428-2.714h-18.285q-3.715 0-6.428 2.714t-2.715 6.428v361.714q-18.285 10.857-18.285 31.428 0 15.143 10.715 25.857t25.857 10.715 25.857-10.715 10.715-25.857zM512 384v-218q0-7.143-3.572-11t-11.286-7.857q-61.428-33.143-105.428-33.143-17.428 0-35.286 6.286t-31 13.714-33 13.714-40.714 6.286q-54.857 0-132.571-41.714-4.857-2.572-9.428-2.572-7.428 0-12.857 5.428t-5.428 12.857v212q0 9.143 8.857 15.714 6 4 22.572 12.286 67.428 34.285 120.285 34.285 30.571 0 57.143-8.285t62.572-25.143q10.857-5.428 25.143-5.428 15.428 0 33.572 6t31.428 13.428 25.143 13.428 15.572 6q7.428 0 12.857-5.428t5.428-12.857z" />
<glyph unicode="&#xe635;" d="M512 219.429q0-7.428-5.428-12.857l-73.143-73.143q-5.428-5.428-12.857-5.428t-12.857 5.428-5.428 12.857v36.572h-292.572v-36.572q0-7.428-5.428-12.857t-12.857-5.428-12.857 5.428l-73.143 73.143q-5.428 5.428-5.428 12.857t5.428 12.857l73.143 73.143q5.428 5.429 12.857 5.429t12.857-5.428 5.428-12.857v-36.571h292.572v36.572q0 7.428 5.428 12.857t12.857 5.429 12.857-5.428l73.143-73.143q5.428-5.428 5.428-12.857z" />
<glyph unicode="&#xe636;" d="M85.334 90.667c-11.776 0-21.334 9.558-21.334 21.334v136.149l-11.797-5.888c-10.56-5.291-23.36-0.982-28.63 9.536-5.27 10.538-0.982 23.339 9.557 28.63l42.666 21.334c6.614 3.306 14.464 2.965 20.757-0.939 6.272-3.904 10.112-10.752 10.112-18.155v-170.666c0-11.776-9.558-21.334-21.334-21.334zM277.334 90.667h-106.666c-8.619 0-16.405 5.205-19.712 13.163-3.306 7.978-1.472 17.152 4.63 23.253l85.334 85.334c5.418 5.418 8.405 12.608 8.405 20.266 0 7.637-2.987 14.827-8.405 20.245-10.838 10.838-29.654 10.838-40.534-0.022-5.398-5.376-8.384-12.565-8.384-20.224 0-11.776-9.558-21.333-21.334-21.333s-21.334 9.558-21.334 21.333c0 19.072 7.424 36.971 20.906 50.432 26.987 26.944 73.899 26.944 100.842-0.022 13.483-13.462 20.885-31.381 20.885-50.41 0-19.050-7.424-36.97-20.885-50.432l-48.917-48.918h55.168c11.776 0 21.334-9.558 21.334-21.334s-9.558-21.334-21.334-21.334zM447.040 210.624c7.211 9.75 11.627 21.674 11.627 34.709 0 32.362-26.325 58.666-58.666 58.666-21.995 0-41.942-12.138-52.053-31.659-5.418-10.453-1.344-23.338 9.13-28.757 10.454-5.418 23.339-1.322 28.757 9.131 2.731 5.312 8.171 8.619 14.166 8.619 8.832 0 16-7.168 16-16s-7.168-16-16-16c-11.776 0-21.334-9.557-21.334-21.333s9.558-21.334 21.334-21.334c14.699 0 26.666-11.968 26.666-26.666s-11.968-26.666-26.666-26.666-26.666 11.968-26.666 26.666c0 11.776-9.558 21.334-21.334 21.334s-21.334-9.558-21.334-21.334c0-38.23 31.104-69.334 69.334-69.334s69.334 31.104 69.334 69.334c0 20.032-8.661 37.952-22.293 50.624z" />
<glyph unicode="&#xe637;" d="M341.334 341.333h-170.667c-23.466 0-42.667-19.2-42.667-42.667v-170.666c0-23.466 19.2-42.666 42.666-42.666h170.666c23.466 0 42.666 19.2 42.666 42.666v170.667c0 23.466-19.2 42.666-42.666 42.666z" />
<glyph unicode="&#xe638;" d="M455.019 315.584c0 25.856-10.070 50.176-28.352 68.416s-42.582 28.352-68.416 28.352c-25.579 0-49.642-9.877-67.84-27.819-0.576-0.534-169.963-169.899-169.963-169.899-7.957-7.957-15.296-19.413-20.63-32.298-4.16-10.091-42.218-125.077-49.834-148.032-2.538-7.637-0.533-16.086 5.163-21.781 4.032-4.032 9.493-6.25 15.082-6.25 2.24 0 4.502 0.384 6.698 1.088 22.954 7.574 137.92 45.675 148.010 49.834 12.864 5.291 24.32 12.63 32.32 20.63l46.016 45.995c0.534-0.022 1.067-0.214 1.622-0.214 13.654 0 27.307 5.205 37.738 15.616l96 96c14.848 14.827 18.923 36.246 12.544 54.87 2.283 8.234 3.84 16.704 3.84 25.493zM201.92 94.165c-8.661-3.050-24.427-8.384-43.477-14.741l-36.352 36.352c6.422 19.072 11.755 34.858 14.742 43.478l65.088-65.088zM114.517 93.163l21.312-21.312c-10.517-3.498-21.334-7.104-31.957-10.646 3.541 10.624 7.147 21.462 10.645 31.957zM278.741 159.573l-51.626-51.627c-1.302-1.301-3.221-2.538-5.013-3.84l-75.306 75.286c1.302 1.792 2.56 3.755 3.84 4.992l152.128 152.128 58.262-58.261-78.72-78.72c-10.944-10.923-11.712-27.498-3.563-39.957zM408.448 265.365l-96-96c-2.091-2.112-4.822-3.115-7.552-3.115s-5.462 1.046-7.552 3.115c-4.16 4.139-4.16 10.923 0 15.082l96 96c4.139 4.138 10.923 4.138 15.082 0 4.182-4.16 4.202-10.902 0.022-15.083zM410.731 302.997c-11.072 3.584-23.637 1.322-32.448-7.466l-2.176-2.176-58.262 58.262 1.664 1.664c20.992 20.906 56.576 20.928 76.971 0.49 10.219-10.219 15.851-23.808 15.851-38.25 0.022-4.245-0.64-8.406-1.6-12.523z" />
<glyph unicode="&#xe639;" d="M43.212 480c-23.865 0-43.212-19.446-43.212-43.212v-425.577c0-23.865 19.446-43.212 43.212-43.212h425.577c23.865 0 43.212 19.446 43.212 43.212v425.577c0 23.865-19.446 43.212-43.212 43.212h-425.577zM256.541 17.454c113.175 0 204.923 91.747 204.923 204.923s-91.747 204.923-204.923 204.923c-113.175 0-204.923-91.747-204.923-204.923 0-113.175 91.747-204.923 204.923-204.923zM204.195 343.24c14.029 5.65 29.354 8.76 45.406 8.76 67.158 0 121.6-54.442 121.6-121.6 0-67.158-54.442-121.6-121.6-121.6-67.158 0-121.6 54.442-121.6 121.6 0 15.467 2.887 30.259 8.153 43.868 8.608-15.56 25.188-26.095 44.228-26.095 27.897 0 50.511 22.615 50.511 50.511 0 19.286-10.808 36.047-26.697 44.557z" />
</font>
</defs>
</svg>
